[VR] KAR-979 Virtually Obsessed Uniforms Pretty Girls Breasts Chubby Panchira Voyeur

INDIA

Well-Known Member
May 15, 2008
244
315
548e2c4bb6294bce4732e6104a97accc.jpg

7tg0jbqwf4i3.jpg

KAR-979 Virtually Obsessed Uniforms Pretty Girls Breasts Chubby Panchira Voyeur

ID:KAR-979
Release Date: 2018-07-13
Length: 320 min(s)
Director:—-
Maker: Karuma
Label: Tousatsu
Genre(s): School Girls Underwear Voyeur Beautiful Girl Butt


Format : MPEG-4
Format profile : Base Media
Codec ID : isom (isom/iso2/avc1/mp41)
File size : 11.2 GiB
Duration : 3 h 58 min
Overall bit rate mode : Variable
Overall bit rate : 6 746 kb/s
Writing application : Lavf57.83.100

Video
ID : 1
Format : AVC
Format/Info : Advanced Video Codec
Format profile : High@L4
Format settings, CABAC : Yes
Format settings, ReFrames : 4 frames
Codec ID : avc1
Codec ID/Info : Advanced Video Coding
Duration : 3 h 58 min
Duration_FirstFrame : 1 ms
Bit rate : 6 488 kb/s
Width : 1 920 pixels
Height : 1 080 pixels
Display aspect ratio : 16:9
Frame rate mode : Constant
Frame rate : 29.970 (29970/1000) FPS
Color space : YUV
Chroma subsampling : 4:2:0
Bit depth : 8 bits
Scan type : Progressive
Bits/(Pixel*Frame) : 0.104
Stream size : 10.8 GiB (96%)
Writing library : x264 core 152 r2851kMod ba24899

Audio
ID : 2
Format : AAC
Format/Info : Advanced Audio Codec
Format profile : LC
Codec ID : 40
Duration : 3 h 58 min
Bit rate mode : Variable
Bit rate : 258 kb/s
Channel(s) : 2 channels
Channel positions : Front: L R
Sampling rate : 44.1 kHz
Frame rate : 43.066 FPS (1024 spf)
Compression mode : Lossy
Stream size : 436 MiB (4%)
Default : Yes
Alternate group : 1
 

Attachments

  • kar-979.torrent
    119.4 KB · Views: 1,193
Last edited:
  • Like
Reactions: park15