INDIA

Well-Known Member
May 15, 2008
244
301
for your VR headsets..
if want to to use on PC in regular 2d mode, use one of these or diffrent:
KMPlayer
GoPro VR Player
DeoPlayer
ScriptPlayer


ID:VOVS-158 / VR
Release Date:2017-10-07
Length: 31min
Director:
Studio: Buiwan VR
Label: Buiwan VR SEX
Series: Continuous ○ firing
Genre:
DMM exclusive DMM exclusive VR Graduate with out oral sex monomer Works female superior girl
JAV Idols: Sasaki Aya wave
Format : MPEG-4
Format profile : Base Media
Codec ID : isom (isom/iso2/avc1/mp41)
File size : 2.66 GiB
Duration : 31 min
Overall bit rate mode : Variable
Overall bit rate : 12.1 Mb/s
Writing application : Lavf57.21.101

Video
ID : 1
Format : AVC
Format/Info : Advanced Video Codec
Format profile : High@L5.2
Format settings, CABAC : Yes
Format settings, ReFrames : 2 frames
Format settings, GOP : M=3, N=60
Codec ID : avc1
Codec ID/Info : Advanced Video Coding
Duration : 31 min
Bit rate mode : Constant
Bit rate : 12.0 Mb/s / 12.0 Mb/s
Width : 2 160 pixels
Height : 2 160 pixels
Display aspect ratio : 1.000
Frame rate mode : Constant
Frame rate : 30.000 FPS
Color space : YUV
Chroma subsampling : 4:2:0
Bit depth : 8 bits
Scan type : Progressive
Bits/(Pixel*Frame) : 0.086
Stream size : 2.64 GiB (99%)
Writing library : x264 core 148
Encoding settings : cabac=1 / ref=2 / deblock=1:0:0 / analyse=0x3:0x113 / me=hex / subme=7 / psy=1 / psy_rd=1.00:0.00 / mixed_ref=1 / me_range=16 / chroma_me=1 / trellis=1 / 8x8dct=1 / cqm=0 / deadzone=21,11 / fast_pskip=1 / chroma_qp_offset=-2 / threads=16 / lookahead_threads=2 / sliced_threads=0 / slices=1 / nr=0 / decimate=1 / interlaced=0 / bluray_compat=0 / constrained_intra=0 / bframes=2 / b_pyramid=0 / b_adapt=1 / b_bias=0 / direct=1 / weightb=1 / open_gop=0 / weightp=1 / keyint=60 / keyint_min=31 / scenecut=40 / intra_refresh=0 / rc_lookahead=40 / rc=cbr / mbtree=1 / bitrate=12000 / ratetol=1.0 / qcomp=0.60 / qpmin=0 / qpmax=69 / qpstep=4 / vbv_maxrate=12000 / vbv_bufsize=12000 / nal_hrd=cbr / filler=1 / ip_ratio=1.40 / aq=3:1.00

Audio
ID : 2
Format : AAC
Format/Info : Advanced Audio Codec
Format profile : LC
Codec ID : 40
Duration : 31 min
Bit rate mode : Variable
Bit rate : 125 kb/s
Maximum bit rate : 127 kb/s
Channel(s) : 2 channels
Channel positions : Front: L R
Sampling rate : 48.0 kHz
Frame rate : 46.875 FPS (1024 spf)
Compression mode : Lossy
Stream size : 28.0 MiB (1%)
Default : Yes
Alternate group : 1
 

Attachments

  • [VR] VOVS-158.torrent
    60.5 KB · Views: 2,292
Last edited:

INDIA

Well-Known Member
May 15, 2008
244
301
for your VR headsets..
if want to to use on PC in regular 2d mode, use one of these or diffrent:
KMPlayer
GoPro VR Player
DeoPlayer
ScriptPlayer



ID: VOVS-195
Release Date: 2018-02-10
Length: 40 min(s)
Director: ----
Maker: Buyone VR
Label: Buyone VR SEX
Genre(s): CreampieSoloworkBig TitsBeautiful GirlSubjectivityVR
Cast: Sakurai Aya
VIDEO A;;;;
Format : MPEG-4
Format profile : Base Media
Codec ID : isom (isom/iso2/avc1/mp41)
File size : 1.53 GiB
Duration : 18 min
Overall bit rate mode : Variable
Overall bit rate : 12.1 Mb/s
Writing application : Lavf57.21.101

Video
ID : 1
Format : AVC
Format/Info : Advanced Video Codec
Format profile : High@L5.2
Format settings, CABAC : Yes
Format settings, ReFrames : 2 frames
Format settings, GOP : M=3, N=60
Codec ID : avc1
Codec ID/Info : Advanced Video Coding
Duration : 18 min
Bit rate mode : Constant
Bit rate : 12.0 Mb/s / 12.0 Mb/s
Width : 2 160 pixels
Height : 2 160 pixels
Display aspect ratio : 1.000
Frame rate mode : Constant
Frame rate : 30.000 FPS
Color space : YUV
Chroma subsampling : 4:2:0
Bit depth : 8 bits
Scan type : Progressive
Bits/(Pixel*Frame) : 0.086
Stream size : 1.51 GiB (99%)
Writing library : x264 core 148

Audio
ID : 2
Format : AAC
Format/Info : Advanced Audio Codec
Format profile : LC
Codec ID : 40
Duration : 18 min
Bit rate mode : Variable
Bit rate : 125 kb/s
Maximum bit rate : 127 kb/s
Channel(s) : 2 channels
Channel positions : Front: L R
Sampling rate : 48.0 kHz
Frame rate : 46.875 FPS (1024 spf)
Compression mode : Lossy
Stream size : 16.1 MiB (1%)
Default : Yes
Alternate group : 1

VIDEO B;;;;
Format : MPEG-4
Format profile : Base Media
Codec ID : isom (isom/iso2/avc1/mp41)
File size : 1.87 GiB
Duration : 22 min
Overall bit rate mode : Variable
Overall bit rate : 12.1 Mb/s
Writing application : Lavf57.21.101

Video
ID : 1
Format : AVC
Format/Info : Advanced Video Codec
Format profile : High@L5.2
Format settings, CABAC : Yes
Format settings, ReFrames : 2 frames
Format settings, GOP : M=3, N=60
Codec ID : avc1
Codec ID/Info : Advanced Video Coding
Duration : 22 min
Bit rate mode : Constant
Bit rate : 12.0 Mb/s / 12.0 Mb/s
Width : 2 160 pixels
Height : 2 160 pixels
Display aspect ratio : 1.000
Frame rate mode : Constant
Frame rate : 30.000 FPS
Color space : YUV
Chroma subsampling : 4:2:0
Bit depth : 8 bits
Scan type : Progressive
Bits/(Pixel*Frame) : 0.086
Stream size : 1.85 GiB (99%)
Writing library : x264 core 148


Audio
ID : 2
Format : AAC
Format/Info : Advanced Audio Codec
Format profile : LC
Codec ID : 40
Duration : 22 min
Bit rate mode : Variable
Bit rate : 125 kb/s
Maximum bit rate : 132 kb/s
Channel(s) : 2 channels
Channel positions : Front: L R
Sampling rate : 48.0 kHz
Frame rate : 46.875 FPS (1024 spf)
Compression mode : Lossy
Stream size : 19.7 MiB (1%)
Default : Yes
Alternate group : 1
 

Attachments

  • [VR] VOVS-195.torrent
    75.4 KB · Views: 1,460
Last edited:
  • Like
Reactions: downloader

INDIA

Well-Known Member
May 15, 2008
244
301
for your VR headsets..
if want to to use on PC in regular 2d mode, use one of these or diffrent:
KMPlayer
GoPro VR Player
DeoPlayer
ScriptPlayer




ID: VOVS-206
Release Date: 2017-10-07
Length: 46 min(s)
Director: —-
Maker: Buyone VR
Label: Buyone VR SEX
Genre(s): CreampieSoloworkBeautiful GirlCowgirlBreastsVR
Cast: Sekine Nami
Part number: VOVS-206
Release Date: 2017-10-07
Duration: 46 minutes
Director: -
Studio: Buiwan VR
Label: Buiwan VR SEX
Genre: Cum single work Pretty cowgirl Breasts VR
Cast: Nami Sekine
Format : MPEG-4
Format profile : Base Media
Codec ID : isom (isom/iso2/avc1/mp41)
File size : 3.87 GiB
Duration : 45 min
Overall bit rate mode : Variable
Overall bit rate : 12.1 Mb/s
Writing application : Lavf57.21.101

Video
ID : 1
Format : AVC
Format/Info : Advanced Video Codec
Format profile : High@L5.2
Format settings, CABAC : Yes
Format settings, ReFrames : 2 frames
Format settings, GOP : M=3, N=60
Codec ID : avc1
Codec ID/Info : Advanced Video Coding
Duration : 45 min
Bit rate mode : Constant
Bit rate : 12.0 Mb/s / 12.0 Mb/s
Width : 2 160 pixels
Height : 2 160 pixels
Display aspect ratio : 1.000
Frame rate mode : Constant
Frame rate : 30.000 FPS
Color space : YUV
Chroma subsampling : 4:2:0
Bit depth : 8 bits
Scan type : Progressive
Bits/(Pixel*Frame) : 0.086
Stream size : 3.83 GiB (99%)
Writing library : x264 core 148

Audio
ID : 2
Format : AAC
Format/Info : Advanced Audio Codec
Format profile : LC
Codec ID : 40
Duration : 45 min
Bit rate mode : Variable
Bit rate : 125 kb/s
Maximum bit rate : 127 kb/s
Channel(s) : 2 channels
Channel positions : Front: L R
Sampling rate : 48.0 kHz
Frame rate : 46.875 FPS (1024 spf)
Compression mode : Lossy
Stream size : 40.7 MiB (1%)
Default : Yes
Alternate group : 1
 

Attachments

  • [VR] VOVS-206.torrent
    84.6 KB · Views: 1,393
Last edited:

INDIA

Well-Known Member
May 15, 2008
244
301
for your VR headsets..
if want to to use on PC in regular 2d mode, use one of these or diffrent:
KMPlayer
GoPro VR Player
DeoPlayer
ScriptPlayer



ID: VOVS-210
Release Date: 2017-11-18
Length: 29 min(s)
Director: ----
Maker: Buyone VR
Label: Buyone VR SEX
Genre(s): Creampie Solowork Big Tits Beautiful Girl Cowgirl VR
Cast: Futaba Yoshika
Format : MPEG-4
Format profile : Base Media
Codec ID : isom (isom/iso2/avc1/mp41)
File size : 2.44 GiB
Duration : 28 min
Overall bit rate mode : Variable
Overall bit rate : 12.1 Mb/s
Writing application : Lavf57.21.101

Video
ID : 1
Format : AVC
Format/Info : Advanced Video Codec
Format profile : High@L5.2
Format settings, CABAC : Yes
Format settings, ReFrames : 2 frames
Format settings, GOP : M=3, N=60
Codec ID : avc1
Codec ID/Info : Advanced Video Coding
Duration : 28 min
Bit rate mode : Constant
Bit rate : 12.0 Mb/s / 12.0 Mb/s
Width : 2 160 pixels
Height : 2 160 pixels
Display aspect ratio : 1.000
Frame rate mode : Constant
Frame rate : 30.000 FPS
Color space : YUV
Chroma subsampling : 4:2:0
Bit depth : 8 bits
Scan type : Progressive
Bits/(Pixel*Frame) : 0.086
Stream size : 2.41 GiB (99%)
Writing library : x264 core 148
Encoding settings : cabac=1 / ref=2 / deblock=1:0:0 / analyse=0x3:0x113 / me=hex / subme=7 / psy=1 / psy_rd=1.00:0.00 / mixed_ref=1 / me_range=16 / chroma_me=1 / trellis=1 / 8x8dct=1 / cqm=0 / deadzone=21,11 / fast_pskip=1 / chroma_qp_offset=-2 / threads=16 / lookahead_threads=2 / sliced_threads=0 / slices=1 / nr=0 / decimate=1 / interlaced=0 / bluray_compat=0 / constrained_intra=0 / bframes=2 / b_pyramid=0 / b_adapt=1 / b_bias=0 / direct=1 / weightb=1 / open_gop=0 / weightp=1 / keyint=60 / keyint_min=31 / scenecut=40 / intra_refresh=0 / rc_lookahead=40 / rc=cbr / mbtree=1 / bitrate=12000 / ratetol=1.0 / qcomp=0.60 / qpmin=0 / qpmax=69 / qpstep=4 / vbv_maxrate=12000 / vbv_bufsize=12000 / nal_hrd=cbr / filler=1 / ip_ratio=1.40 / aq=3:1.00

Audio
ID : 2
Format : AAC
Format/Info : Advanced Audio Codec
Format profile : LC
Codec ID : 40
Duration : 28 min
Bit rate mode : Variable
Bit rate : 125 kb/s
Maximum bit rate : 127 kb/s
Channel(s) : 2 channels
Channel positions : Front: L R
Sampling rate : 48.0 kHz
Frame rate : 46.875 FPS (1024 spf)
Compression mode : Lossy
Stream size : 25.7 MiB (1%)
Default : Yes
Alternate group : 1
 

Attachments

  • [VR] VOVS-210.torrent
    104.8 KB · Views: 1,582
Last edited:

INDIA

Well-Known Member
May 15, 2008
244
301
for your VR headsets..
if want to to use on PC in regular 2d mode, use one of these or diffrent:
KMPlayer
GoPro VR Player
DeoPlayer
ScriptPlayer



ID: VOVS-250
Release Date: 2017-10-07
Length: 43 min(s)
Director: ----
Maker: Buyone VR
Label: Buyone VR SEX
Genre(s): Creampie Solowork Beautiful Girl Cowgirl Slender VR
Cast: Hoshina Ai
Format : MPEG-4
Format profile : Base Media
Codec ID : isom (isom/iso2/avc1/mp41)
File size : 3.66 GiB
Duration : 43 min
Overall bit rate mode : Variable
Overall bit rate : 12.1 Mb/s
Writing application : Lavf57.21.101
Video
ID : 1
Format : AVC
Format/Info : Advanced Video Codec
Format profile : High@L5.2
Format settings, CABAC : Yes
Format settings, ReFrames : 2 frames
Format settings, GOP : M=3, N=60
Codec ID : avc1
Codec ID/Info : Advanced Video Coding
Duration : 43 min
Bit rate mode : Constant
Bit rate : 12.0 Mb/s / 12.0 Mb/s
Width : 2 160 pixels
Height : 2 160 pixels
Display aspect ratio : 1.000
Frame rate mode : Constant
Frame rate : 30.000 FPS
Color space : YUV
Chroma subsampling : 4:2:0
Bit depth : 8 bits
Scan type : Progressive
Bits/(Pixel*Frame) : 0.086
Stream size : 3.62 GiB (99%)
Writing library : x264 core 148
Encoding settings : cabac=1 / ref=2 / deblock=1:0:0 / analyse=0x3:0x113 / me=hex / subme=7 / psy=1 / psy_rd=1.00:0.00 / mixed_ref=1 / me_range=16 / chroma_me=1 / trellis=1 / 8x8dct=1 / cqm=0 / deadzone=21,11 / fast_pskip=1 / chroma_qp_offset=-2 / threads=16 / lookahead_threads=2 / sliced_threads=0 / slices=1 / nr=0 / decimate=1 / interlaced=0 / bluray_compat=0 / constrained_intra=0 / bframes=2 / b_pyramid=0 / b_adapt=1 / b_bias=0 / direct=1 / weightb=1 / open_gop=0 / weightp=1 / keyint=60 / keyint_min=31 / scenecut=40 / intra_refresh=0 / rc_lookahead=40 / rc=cbr / mbtree=1 / bitrate=12000 / ratetol=1.0 / qcomp=0.60 / qpmin=0 / qpmax=69 / qpstep=4 / vbv_maxrate=12000 / vbv_bufsize=12000 / nal_hrd=cbr / filler=1 / ip_ratio=1.40 / aq=3:1.00

Audio
ID : 2
Format : AAC
Format/Info : Advanced Audio Codec
Format profile : LC
Codec ID : 40
Duration : 43 min
Bit rate mode : Variable
Bit rate : 125 kb/s
Maximum bit rate : 127 kb/s
Channel(s) : 2 channels
Channel positions : Front: L R
Sampling rate : 48.0 kHz
Frame rate : 46.875 FPS (1024 spf)
Compression mode : Lossy
Stream size : 38.5 MiB (1%)
Default : Yes
Alternate group : 1
 

Attachments

  • [VR] VOVS-250.torrent
    80.5 KB · Views: 1,407
Last edited:

INDIA

Well-Known Member
May 15, 2008
244
301
for your VR headsets..
if want to to use on PC in regular 2d mode, use one of these or diffrent:
KMPlayer
GoPro VR Player
DeoPlayer
ScriptPlayer



ID: VOVS-252
Release Date: 2017-10-07
Length: 41 min(s)
Director: ----
Maker: Buyone VR
Label: Buyone VR SEX
Genre(s): Creampie Solowork Beautiful Girl Cowgirl Breasts VR
Cast: Miyazaki Aya
Format : MPEG-4
Format profile : Base Media
Codec ID : isom (isom/iso2/avc1/mp41)
File size : 3.49 GiB
Duration : 41 min
Overall bit rate mode : Variable
Overall bit rate : 12.1 Mb/s
Writing application : Lavf57.21.101
Video
ID : 1
Format : AVC
Format/Info : Advanced Video Codec
Format profile : High@L5.2
Format settings, CABAC : Yes
Format settings, ReFrames : 2 frames
Format settings, GOP : M=3, N=60
Codec ID : avc1
Codec ID/Info : Advanced Video Coding
Duration : 41 min
Bit rate mode : Constant
Bit rate : 12.0 Mb/s / 12.0 Mb/s
Width : 2 160 pixels
Height : 2 160 pixels
Display aspect ratio : 1.000
Frame rate mode : Constant
Frame rate : 30.000 FPS
Color space : YUV
Chroma subsampling : 4:2:0
Bit depth : 8 bits
Scan type : Progressive
Bits/(Pixel*Frame) : 0.086
Stream size : 3.45 GiB (99%)
Writing library : x264 core 148
Encoding settings : cabac=1 / ref=2 / deblock=1:0:0 / analyse=0x3:0x113 / me=hex / subme=7 / psy=1 / psy_rd=1.00:0.00 / mixed_ref=1 / me_range=16 / chroma_me=1 / trellis=1 / 8x8dct=1 / cqm=0 / deadzone=21,11 / fast_pskip=1 / chroma_qp_offset=-2 / threads=16 / lookahead_threads=2 / sliced_threads=0 / slices=1 / nr=0 / decimate=1 / interlaced=0 / bluray_compat=0 / constrained_intra=0 / bframes=2 / b_pyramid=0 / b_adapt=1 / b_bias=0 / direct=1 / weightb=1 / open_gop=0 / weightp=1 / keyint=60 / keyint_min=31 / scenecut=40 / intra_refresh=0 / rc_lookahead=40 / rc=cbr / mbtree=1 / bitrate=12000 / ratetol=1.0 / qcomp=0.60 / qpmin=0 / qpmax=69 / qpstep=4 / vbv_maxrate=12000 / vbv_bufsize=12000 / nal_hrd=cbr / filler=1 / ip_ratio=1.40 / aq=3:1.00

Audio
ID : 2
Format : AAC
Format/Info : Advanced Audio Codec
Format profile : LC
Codec ID : 40
Duration : 41 min
Bit rate mode : Variable
Bit rate : 125 kb/s
Maximum bit rate : 127 kb/s
Channel(s) : 2 channels
Channel positions : Front: L R
Sampling rate : 48.0 kHz
Frame rate : 46.875 FPS (1024 spf)
Compression mode : Lossy
Stream size : 36.7 MiB (1%)
Default : Yes
Alternate group : 1
 

Attachments

  • [VR] VOVS-252.torrent
    76.9 KB · Views: 1,401
Last edited:

INDIA

Well-Known Member
May 15, 2008
244
301
for your VR headsets..
if want to to use on PC in regular 2d mode, use one of these or diffrent:
KMPlayer
GoPro VR Player
DeoPlayer
ScriptPlayer


[VR] VOVS-273.jpg [VR] VOVS-273_A_s.jpeg [VR] VOVS-273_B_s.jpeg [VR] VOVS-273_C_s.jpeg [VR] VOVS-273_D_s.jpeg [VR] VOVS-273_E_s.jpeg
ID: VOVS-273
Release Date: 2017-11-25
Length: 125 min(s)
Director: ----
Maker: Buyone VR
Label: Buyone VR SEX
Genre(s): HandjobBig TitsBeautiful GirlLotionVR
Cast: Shirasaki Yuzu Sasami Aya Suzumiya Haruka Natsuki Marina Kanae Renon Futaba Yoshika
VIDEO A:::
Format : MPEG-4
Format profile : Base Media
Codec ID : isom (isom/iso2/avc1/mp41)
File size : 2.41 GiB
Duration : 28 min
Overall bit rate mode : Variable
Overall bit rate : 12.1 Mb/s
Writing application : Lavf57.21.101

Video
ID : 1
Format : AVC
Format/Info : Advanced Video Codec
Format profile : High@L5.2
Format settings, CABAC : Yes
Format settings, ReFrames : 2 frames
Format settings, GOP : M=3, N=60
Codec ID : avc1
Codec ID/Info : Advanced Video Coding
Duration : 28 min
Bit rate mode : Constant
Bit rate : 12.0 Mb/s / 12.0 Mb/s
Width : 2 160 pixels
Height : 2 160 pixels
Display aspect ratio : 1.000
Frame rate mode : Constant
Frame rate : 30.000 FPS
Color space : YUV
Chroma subsampling : 4:2:0
Bit depth : 8 bits
Scan type : Progressive
Bits/(Pixel*Frame) : 0.086
Stream size : 2.39 GiB (99%)
Writing library : x264 core 148

Audio
ID : 2
Format : AAC
Format/Info : Advanced Audio Codec
Format profile : LC
Codec ID : 40
Duration : 28 min
Bit rate mode : Variable
Bit rate : 125 kb/s
Maximum bit rate : 127 kb/s
Channel(s) : 2 channels
Channel positions : Front: L R
Sampling rate : 48.0 kHz
Frame rate : 46.875 FPS (1024 spf)
Compression mode : Lossy
Stream size : 25.4 MiB (1%)
Default : Yes
Alternate group : 1

VIDEO B:::
VOVS-273\[VR] VOVS-273_B.mp4
Format : MPEG-4
Format profile : Base Media
Codec ID : isom (isom/iso2/avc1/mp41)
File size : 2.14 GiB
Duration : 25 min
Overall bit rate mode : Variable
Overall bit rate : 12.1 Mb/s
Writing application : Lavf57.21.101

Video
ID : 1
Format : AVC
Format/Info : Advanced Video Codec
Format profile : High@L5.2
Format settings, CABAC : Yes
Format settings, ReFrames : 2 frames
Codec ID : avc1
Codec ID/Info : Advanced Video Coding
Duration : 25 min
Bit rate mode : Constant
Bit rate : 12.0 Mb/s / 12.0 Mb/s
Width : 2 160 pixels
Height : 2 160 pixels
Display aspect ratio : 1.000
Frame rate mode : Variable
Frame rate : 30.000 FPS
Minimum frame rate : 30.000 FPS
Maximum frame rate : 90 000.000 FPS
Color space : YUV
Chroma subsampling : 4:2:0
Bit depth : 8 bits
Scan type : Progressive
Bits/(Pixel*Frame) : 0.086
Stream size : 2.12 GiB (99%)
Writing library : x264 core 148

Audio
ID : 2
Format : AAC
Format/Info : Advanced Audio Codec
Format profile : LC
Codec ID : 40
Duration : 25 min
Bit rate mode : Variable
Bit rate : 125 kb/s
Maximum bit rate : 127 kb/s
Channel(s) : 2 channels
Channel positions : Front: L R
Sampling rate : 48.0 kHz
Frame rate : 46.875 FPS (1024 spf)
Compression mode : Lossy
Stream size : 22.5 MiB (1%)
Default : Yes
Alternate group : 1

VIDEO C:::

VOVS-273\[VR] VOVS-273_C.mp4
Format : MPEG-4
Format profile : Base Media
Codec ID : isom (isom/iso2/avc1/mp41)
File size : 1.95 GiB
Duration : 23 min
Overall bit rate mode : Variable
Overall bit rate : 12.1 Mb/s
Writing application : Lavf57.21.101

Video
ID : 1
Format : AVC
Format/Info : Advanced Video Codec
Format profile : High@L5.2
Format settings, CABAC : Yes
Format settings, ReFrames : 2 frames
Format settings, GOP : M=3, N=60
Codec ID : avc1
Codec ID/Info : Advanced Video Coding
Duration : 23 min
Bit rate mode : Constant
Bit rate : 12.0 Mb/s / 12.0 Mb/s
Width : 2 160 pixels
Height : 2 160 pixels
Display aspect ratio : 1.000
Frame rate mode : Constant
Frame rate : 30.000 FPS
Color space : YUV
Chroma subsampling : 4:2:0
Bit depth : 8 bits
Scan type : Progressive
Bits/(Pixel*Frame) : 0.086
Stream size : 1.93 GiB (99%)
Writing library : x264 core 148

Audio
ID : 2
Format : AAC
Format/Info : Advanced Audio Codec
Format profile : LC
Codec ID : 40
Duration : 23 min
Bit rate mode : Variable
Bit rate : 125 kb/s
Maximum bit rate : 155 kb/s
Channel(s) : 2 channels
Channel positions : Front: L R
Sampling rate : 48.0 kHz
Frame rate : 46.875 FPS (1024 spf)
Compression mode : Lossy
Stream size : 20.5 MiB (1%)
Default : Yes
Alternate group : 1

VIDEO D:::
VOVS-273\[VR] VOVS-273_D.mp4
Format : MPEG-4
Format profile : Base Media
Codec ID : isom (isom/iso2/avc1/mp41)
File size : 1.95 GiB
Duration : 23 min
Overall bit rate mode : Constant
Overall bit rate : 12.1 Mb/s
Writing application : Lavf57.21.101

Video
ID : 1
Format : AVC
Format/Info : Advanced Video Codec
Format profile : High@L5.2
Format settings, CABAC : Yes
Format settings, ReFrames : 2 frames
Format settings, GOP : M=3, N=60
Codec ID : avc1
Codec ID/Info : Advanced Video Coding
Duration : 23 min
Bit rate mode : Constant
Bit rate : 12.0 Mb/s / 12.0 Mb/s
Width : 2 160 pixels
Height : 2 160 pixels
Display aspect ratio : 1.000
Frame rate mode : Constant
Frame rate : 30.000 FPS
Color space : YUV
Chroma subsampling : 4:2:0
Bit depth : 8 bits
Scan type : Progressive
Bits/(Pixel*Frame) : 0.086
Stream size : 1.93 GiB (99%)
Writing library : x264 core 148

Audio
ID : 2
Format : AAC
Format/Info : Advanced Audio Codec
Format profile : LC
Codec ID : 40
Duration : 23 min
Bit rate mode : Constant
Bit rate : 125 kb/s
Channel(s) : 2 channels
Channel positions : Front: L R
Sampling rate : 48.0 kHz
Frame rate : 46.875 FPS (1024 spf)
Compression mode : Lossy
Stream size : 20.5 MiB (1%)
Default : Yes
Alternate group : 1

VIDEO E:::
VOVS-273\[VR] VOVS-273_E.mp4
Format : MPEG-4
Format profile : Base Media
Codec ID : isom (isom/iso2/avc1/mp41)
File size : 2.12 GiB
Duration : 25 min
Overall bit rate mode : Variable
Overall bit rate : 12.1 Mb/s
Writing application : Lavf57.21.101

Video
ID : 1
Format : AVC
Format/Info : Advanced Video Codec
Format profile : High@L5.2
Format settings, CABAC : Yes
Format settings, ReFrames : 2 frames
Codec ID : avc1
Codec ID/Info : Advanced Video Coding
Duration : 25 min
Bit rate mode : Constant
Bit rate : 12.0 Mb/s / 12.0 Mb/s
Width : 2 160 pixels
Height : 2 160 pixels
Display aspect ratio : 1.000
Frame rate mode : Constant
Frame rate : 30.000 FPS
Color space : YUV
Chroma subsampling : 4:2:0
Bit depth : 8 bits
Scan type : Progressive
Bits/(Pixel*Frame) : 0.086
Stream size : 2.10 GiB (99%)
Writing library : x264 core 148

Audio
ID : 2
Format : AAC
Format/Info : Advanced Audio Codec
Format profile : LC
Codec ID : 40
Duration : 25 min
Bit rate mode : Variable
Bit rate : 125 kb/s
Maximum bit rate : 127 kb/s
Channel(s) : 2 channels
Channel positions : Front: L R
Sampling rate : 48.0 kHz
Frame rate : 46.875 FPS (1024 spf)
Compression mode : Lossy
Stream size : 22.3 MiB (1%)
Default : Yes
Alternate group : 1
 

Attachments

  • [VR] VOVS-273.torrent
    113.6 KB · Views: 1,284
Last edited:
  • Like
Reactions: ultaman

INDIA

Well-Known Member
May 15, 2008
244
301
for your VR headsets..
if want to to use on PC in regular 2d mode, use one of these or diffrent:
KMPlayer
GoPro VR Player
DeoPlayer
ScriptPlayer


[VR] VOVS-274.jpg [VR] VOVS-274_s.jpeg
ID: VOVS-274
Release Date: 2017-12-16
Length: 39 min(s)
Director: ----
Maker: Buyone VR
Label: Buyone VR SEX
Genre(s): BlowCreampieSoloworkBeautiful GirlCowgirlVR
Cast: Mitani Akari
Format : MPEG-4
Format profile : Base Media
Codec ID : isom (isom/iso2/avc1/mp41)
File size : 3.32 GiB
Duration : 39 min
Overall bit rate mode : Variable
Overall bit rate : 12.1 Mb/s
Writing application : Lavf57.21.101

Video
ID : 1
Format : AVC
Format/Info : Advanced Video Codec
Format profile : High@L5.2
Format settings, CABAC : Yes
Format settings, ReFrames : 2 frames
Format settings, GOP : M=3, N=60
Codec ID : avc1
Codec ID/Info : Advanced Video Coding
Duration : 39 min
Bit rate mode : Constant
Bit rate : 12.0 Mb/s / 12.0 Mb/s
Width : 2 160 pixels
Height : 2 160 pixels
Display aspect ratio : 1.000
Frame rate mode : Constant
Frame rate : 30.000 FPS
Color space : YUV
Chroma subsampling : 4:2:0
Bit depth : 8 bits
Scan type : Progressive
Bits/(Pixel*Frame) : 0.086
Stream size : 3.28 GiB (99%)
Writing library : x264 core 148

Audio
ID : 2
Format : AAC
Format/Info : Advanced Audio Codec
Format profile : LC
Codec ID : 40
Duration : 39 min
Bit rate mode : Variable
Bit rate : 125 kb/s
Maximum bit rate : 127 kb/s
Channel(s) : 2 channels
Channel positions : Front: L R
Sampling rate : 48.0 kHz
Frame rate : 46.875 FPS (1024 spf)
Compression mode : Lossy
Stream size : 34.9 MiB (1%)
Default : Yes
Alternate group : 1
 

Attachments

  • [VR] VOVS-274.torrent
    73.5 KB · Views: 1,361
Last edited:

INDIA

Well-Known Member
May 15, 2008
244
301
for your VR headsets..
if want to to use on PC in regular 2d mode, use one of these or diffrent:
KMPlayer
GoPro VR Player
DeoPlayer
ScriptPlayer


[VR] VOVS-266.jpg [VR] VOVS-266_s.jpeg
ID: VOVS-266
Release Date: 2017-12-16
Length: 50 min(s)
Director: ----
Maker: Buyone VR
Label: Buyone VR SEX
Genre(s): Creampie 3P, 4P Beautiful Girl Cowgirl VR
Format : MPEG-4
Format profile : Base Media
Codec ID : isom (isom/iso2/avc1/mp41)
File size : 4.27 GiB
Duration : 50 min
Overall bit rate mode : Variable
Overall bit rate : 12.1 Mb/s
Writing application : Lavf57.21.101

Video
ID : 1
Format : AVC
Format/Info : Advanced Video Codec
Format profile : High@L5.2
Format settings, CABAC : Yes
Format settings, ReFrames : 2 frames
Format settings, GOP : M=3, N=60
Codec ID : avc1
Codec ID/Info : Advanced Video Coding
Duration : 50 min
Bit rate mode : Constant
Bit rate : 12.0 Mb/s / 12.0 Mb/s
Width : 2 160 pixels
Height : 2 160 pixels
Display aspect ratio : 1.000
Frame rate mode : Constant
Frame rate : 30.000 FPS
Color space : YUV
Chroma subsampling : 4:2:0
Bit depth : 8 bits
Scan type : Progressive
Bits/(Pixel*Frame) : 0.086
Stream size : 4.22 GiB (99%)
Writing library : x264 core 148

Audio
ID : 2
Format : AAC
Format/Info : Advanced Audio Codec
Format profile : LC
Codec ID : 40
Duration : 50 min
Bit rate mode : Variable
Bit rate : 125 kb/s
Maximum bit rate : 127 kb/s
Channel(s) : 2 channels
Channel positions : Front: L R
Sampling rate : 48.0 kHz
Frame rate : 46.875 FPS (1024 spf)
Compression mode : Lossy
Stream size : 44.9 MiB (1%)
Default : Yes
Alternate group : 1
 

Attachments

  • [VR] VOVS-266.torrent
    92.6 KB · Views: 1,622
Last edited:

INDIA

Well-Known Member
May 15, 2008
244
301
for your VR headsets..
if want to to use on PC in regular 2d mode, use one of these or diffrent:
KMPlayer
GoPro VR Player
DeoPlayer
ScriptPlayer



SLR_JVRPorn_Asian Beauty Rides a Dick_original_3514_LR_180.jpg

Complete name : V:\VIRTUAL REALITY\VR videos\asian\PEE\SLR_JVRPorn_Asian Beauty Rides a Dick_original_3514_LR_180.mp4
Format : MPEG-4
Format profile : Base Media / Version 2
Codec ID : mp42 (mp42/mp41)
File size : 5.35 GiB
Duration : 25 min 19 s
Overall bit rate mode : Variable
Overall bit rate : 30.2 Mb/s
Encoded date : UTC 2017-08-29 00:37:46
Tagged date : UTC 2017-08-29 00:38:47
TIM : 00:00:00:00
TSC : 60000
TSZ : 1001

Video
ID : 1
Format : AVC
Format/Info : Advanced Video Codec
Format profile : Main@L5.2
Format settings : CABAC / 3 Ref Frames
Format settings, CABAC : Yes
Format settings, ReFrames : 3 frames
Codec ID : avc1
Codec ID/Info : Advanced Video Coding
Duration : 25 min 19 s
Bit rate : 29.9 Mb/s
Width : 3 840 pixels
Height : 1 920 pixels
Display aspect ratio : 2.000
Frame rate mode : Constant
Frame rate : 59.940 (60000/1001) FPS
Standard : NTSC
Color space : YUV
Chroma subsampling : 4:2:0
Bit depth : 8 bits
Scan type : Progressive
Bits/(Pixel*Frame) : 0.068
Stream size : 5.29 GiB (99%)
Language : English
Encoded date : UTC 2017-08-29 00:37:46
Tagged date : UTC 2017-08-29 00:37:46
Color range : Limited
Color primaries : BT.709
Transfer characteristics : BT.709
Matrix coefficients : BT.709
Codec configuration box : avcC

Audio
ID : 2
Format : AAC LC
Format/Info : Advanced Audio Codec Low Complexity
Codec ID : mp4a-40-2
Duration : 25 min 19 s
Source duration : 25 min 20 s
Bit rate mode : Variable
Bit rate : 317 kb/s
Maximum bit rate : 403 kb/s
Channel(s) : 2 channels
Channel layout : L R
Sampling rate : 48.0 kHz
Frame rate : 46.875 FPS (1024 SPF)
Compression mode : Lossy
Stream size : 57.5 MiB (1%)
Source stream size : 57.5 MiB (1%)
Language : English
Encoded date : UTC 2017-08-29 00:37:46
Tagged date : UTC 2017-08-29 00:37:46
 

Attachments

  • SLR_JVRPorn_Asian Beauty Rides a Dick_original_3514_LR_180.mp4.torrent
    124.7 KB · Views: 874
Last edited:

INDIA

Well-Known Member
May 15, 2008
244
301
for your VR headsets..
if want to to use on PC in regular 2d mode, use one of these or diffrent:
KMPlayer
GoPro VR Player
DeoPlayer
ScriptPlayer




Yui Hatano, Hibiki Otsuka, AIKA, Abe Mikako – ASMR Harem VR Part 1


Yui Hatano, Hibiki Otsuka, AIKA, Abe Mikako – ASMR Harem VR Part 1.jpg
 

Attachments

  • Yui Hatano, Hibiki Otsuka, AIKA, Abe Mikako – ASMR Harem VR Part 1.torrent
    146.2 KB · Views: 898
Last edited:
  • Like
Reactions: ultaman

INDIA

Well-Known Member
May 15, 2008
244
301
for your VR headsets..
if want to to use on PC in regular 2d mode, use one of these or diffrent:
KMPlayer
GoPro VR Player
DeoPlayer
ScriptPlayer




Yui Hatano, Hibiki Otsuka, AIKA, Abe Mikako – ASMR Harem VR Part 2

Yui Hatano, Hibiki Otsuka, AIKA, Abe Mikako – ASMR Harem VR Part 2.jpg


 

Attachments

  • Yui Hatano, Hibiki Otsuka, AIKA, Abe Mikako – ASMR Harem VR Part 2.mp4.torrent
    116.3 KB · Views: 998
  • Like
Reactions: ultaman

INDIA

Well-Known Member
May 15, 2008
244
301
Mio Oichi – Never-ending Virtual Date

mio-oichi-never-ending-virtual-date-part-1-5.jpg


Mio Oichi – Never-ending Virtual Date Part 2.jpg Mio Oichi – Never-ending Virtual Date Part 3.jpg Mio Oichi – Never-ending Virtual Date Part 1.jpg
 

Attachments

  • Mio Oichi – Never-ending Virtual Date2.torrent
    214.6 KB · Views: 914