LADYxLADY Collection [LADY-xxx] [LADYA-xxx] [LADYL-xxx]

SamKook

Akiba Citizen
Uploader
May 10, 2009
2,795
3,791
Slimedog had the idea of starting a collection of all(we hope) the movies from LADYxLADY. We invite anyone to post the movies they have and with the contribution of everyone, I'm sure we will have all of them here in no time.

We will link every movies posted in this thread in this first post with a thumbnail of the cover. All you have to do is click on the thumbnail and it will redirect you to the movies links.

If you post a movie, please only put 1 per post, because it will be easier to link it and please include a picture of the cover with it.

We also started a [thread=126378]Anna and Hanako collection[/thread].


Posters:
SamKook (28): 2,4,5,6,7,9,11,12,13,14,18,22,24,28,30,31,37,39,44,48,50,76,80,96,98,a6,a10,l1
slimedog (18): 8,17,23,27,40,41,43,46,52,56,58,59,60,61,63,64,69,71
ice3155 (24): 1,3,4,10,15,16,19,20,21,26,29,33,34,35,38,42,45,49,51,54,55,57,65,66,73
kentsu (2): 47,68
uberlordz (1): 77
gala (7): 32,53,70,74,75,79, 89
gyoza, ramen & a beer (1): 81
daparsons (12): 25,36,62,67,78,82,83,84,85,86,87,88
kuyakib@nahee (1): 90
avbeta01 (1): 92
loveGIANT (1): 93
khanzai (2): 97,103
takkentt (4): 100,102,104,105
JPTOr (5): 91,94,95,101,106
Mihiiro (6): 72,107,a2,a5,a7,a8
lum_file (3): a1,a3,a4
lannalen (1): a9


LADY-001alt posts
attachment.php
LADY-002alt posts
attachment.php
test
test m1
test m2
test m3
test m4
test m5
test m6
test m7
test m8
test m9
test m10
LADY-003alt posts
attachment.php
Imaginary problem with the release too long to fit here
LADY-004alt posts
[post=450755]
attachment.php
[/post]
[post=2227086]rmvb[/post]
LADY-005alt posts
LADY-006alt posts
attachment.php
LADY-007
[post=373912]
attachment.php
[/post]
...
.
LADY-012
[post=373181]
attachment.php
[/post]
LADY-013
[post=374980]
attachment.php
[/post]
LADY-014
[post=372457]
attachment.php
[/post]
.
..
LADY-018
[post=372500]
attachment.php
[/post]
LADY-040alt posts
[post=1965790]
attachment.php
[/post]
 
Last edited by a moderator:
  • Like
Reactions: sky wang

SamKook

Akiba Citizen
Uploader
May 10, 2009
2,795
3,791
LADY-014 re-upload

LADY-014-cover.jpg

LADY-014-thumbs.jpg


医療セクハラ! 化粧品会社の女子社員の皆さ~ん!女性専用穴までイジる「春の健康診断」しましょうね。

Studio: LADYxLADY
Label: -
Director: Haruna(ハルナ)
Code: LADY-014
Runtime: 120 min
Genre: Lesbian
Cen/Uncen: Censored
Actresses: Unknown
Release Date: 2007/04/19



Container: AVI
Video codec: DivX 5.2.1 (WaffleDay) (UTC 2004-09-08)
Audio codec: MP3 2 channels
Framerate: 29.970 fps
Resolution: 640x480
Bit depth: 8 bits
Duration: 02:15:21.113
Size: 1.51 GiB
Watermark: none
Subtitles: none
Chapters: none

Password: SK123akiba

Subyshare:
http://safelink.strike-up.net/p/fe63cd6bb0

Uptobox:
http://safelink.strike-up.net/p/9eb7e63ec3

Filejoker:
http://safelink.strike-up.net/p/2261a5fc8f

Uploadable:
http://safelink.strike-up.net/p/af51453314
 
Last edited:
  • Like
Reactions: tliu223 and sc00ter

SamKook

Akiba Citizen
Uploader
May 10, 2009
2,795
3,791
LADY-018-cover.jpg

LADY-018-thumbs.jpg


お嬢様女子大生の皆さ~ん!これが噂の潮まで吹かせる「女性専用」エステです。

Studio: LADYxLADY
Label: -
Director: Haruna(ハルナ)
Code: LADY-018
Runtime: 130 min
Genre: Lesbian
Cen/Uncen: Censored
Actresses: Unknown
Release Date: 2007/05/17



Container: AVI
Video codec: XviD 1.1.0 Beta2 (UTC 2005-04-04)
Audio codec: MP3 2 channels
Framerate: 29.970 fps
Resolution: 640x480
Bit depth: 8 bits
Duration: 02:16:35.187
Size: 1.43 GiB
Watermark: none
Subtitles: none
Chapters: none

Password: SK123akiba

Filejoker:
https://safelinking.net/p/eEPjpwz
http://linkcrypt.ws/dir/9bnqeu039741h8o

BigFile:
https://safelinking.net/p/fokrehc
http://linkcrypt.ws/dir/b38v35mny292ztm

Subyshare:
https://safelinking.net/p/51r6nkd
http://linkcrypt.ws/dir/9g14fr7b9y13x1q

Uptobox:
https://safelinking.net/p/cjXG9tL
http://linkcrypt.ws/dir/1q1ilxx24fek585

Keep2Share:
https://safelinking.net/p/F5ucoHK
http://linkcrypt.ws/dir/tiqh036y638974j

1fichier:
https://safelinking.net/p/qCW4DyW
http://linkcrypt.ws/dir/vb6g9f460kt6w2e
 
Last edited:
  • Like
Reactions: tliu223

SamKook

Akiba Citizen
Uploader
May 10, 2009
2,795
3,791
LADY-012 re-upload

LADY-012-cover.jpg

LADY-012-thumbs.jpg


USA過激スタイル米NO.1エステティシャンのハリウッドエステを体験してみませんか。

http://www.lady2.net/012/index.html

Studio: LADYxLADY
Label: -
Director: Pocky Nakamura(中村ポッキー)
Code: LADY-012
Runtime: 120 min
Genre: Lesbian
Cen/Uncen: Censored
Actresses: Unknown
Release Date: 2007/03/22



Container: AVI
Video codec: DivX 5.1.1 (Maupiti) (UTC 2003-11-19)
Audio codec: MP3 2 channels
Framerate: 29.970 fps
Resolution: 640x480
Bit depth: 8 bits
Duration: 02:04:12.345
Size: 1.39 GiB
Watermark: none
Subtitles: none
Chapters: none

Password: SK123akiba

Uploadable:
http://safelink.strike-up.net/p/85a5894391

Subyshare:
http://safelink.strike-up.net/p/8e51fc9eae

Uptobox:
http://safelink.strike-up.net/p/6f7579949e

Filejoker:
http://safelink.strike-up.net/p/602cfa4833
 
Last edited:
  • Like
Reactions: tliu223 and sc00ter

SamKook

Akiba Citizen
Uploader
May 10, 2009
2,795
3,791
LADY-007 re-upload

LADY-007-cover.jpg

LADY-007-thumbs.jpg


街角ナンパ! 女子高生の皆さ~ん負けたらドスケベ指令を賭けて、勝負しませんか。

Studio: LADYxLADY
Label: -
Director: Sari Nakajima(中島サリー)
Code: LADY-007
Runtime: 135 min
Genre: Lesbian
Cen/Uncen: Censored
Actresses: Unknown
Release Date: 2007/02/22



Container: AVI
Video codec: DivX 5.2.1 (WaffleDay) (UTC 2004-09-08)
Audio codec: MP3 2 channels
Framerate: 29.970 fps
Resolution: 640x480
Bit depth: 8 bits
Duration: 02:05:52.846
Size: 1.40 GiB
Watermark: none
Subtitles: none
Chapters: none

Password: SK123akiba


Keep2Share:
http://safelinking.net/p/e2b8d4dab1

Uptobox:
https://safelinking.net/p/mdmPzF5
http://linkcrypt.ws/dir/eet1537582009rd
 
Last edited:
  • Like
Reactions: tliu223 and gon69

SamKook

Akiba Citizen
Uploader
May 10, 2009
2,795
3,791
LADY-013 re-up
LADY-013-cover.jpg

LADY-013-thumbs.jpg


送り狼ナンパ 泥酔キャリアウーマンの皆さ~ん!私たちが「女性限定」オイルマッサージ付き運転代行屋さんです。

Studio: LADYxLADY
Label: -
Director: Lady Fujiko(レディ不二子)
Code: LADY-013
Runtime: 120 min
Genre: Lesbian
Cen/Uncen: Censored
Actresses: Unknown
Release Date: 2007/03/22



Container: AVI
Video codec: DivX 5.1.1 (Maupiti) (UTC 2003-11-19)
Audio codec: MP3 2 channels
Framerate: 29.970 fps
Resolution: 640x480
Bit depth: 8 bits
Duration: 02:07:55.602
Size: 1.43 GiB
Watermark: none
Subtitles: none
Chapters: none

Password: SK123akiba

Uploadable:
http://safelink.strike-up.net/p/b36dd85089

Keep2Share:
http://safelink.strike-up.net/p/33c1b795fa

Uptobox:
http://safelink.strike-up.net/p/f1dc2d6175

Filejoker:
http://safelink.strike-up.net/p/13ca28224d
 
Last edited:
  • Like
Reactions: tliu223

ice3155

Member
Aug 1, 2009
52
6
LADY-065 FULL Version

G10LADY065b.jpg

LADY-065.jpg


「 大沢佑香のやっぱりレズが好き(ハート) 潮吹き大洪水スペシャル!!! 」 ソフトオンデマンド

Video
Format : MPEG-4 Visual
Format settings, BVOP : Yes
Format settings, QPel : No
Format settings, GMC : No warppoints
Format settings, Matrix : Default
Codec ID : DX50
Codec ID/Hint : DivX 5
Duration : 2h 4mn
Bit rate : 1 200 Kbps
Width : 640 pixels
Height : 480 pixels
Display aspect ratio : 4/3
Frame rate : 29.970 fps
Resolution : 24 bits
Colorimetry : 4:2:0
Scan type : Progressive
Bits/(Pixel*Frame) : 0.130
Stream size : 1.04 GiB (85%)
Writing library : DivX 6.6.1.4
Audio
Format : MPEG Audio
Format version : Version 1
Format profile : Layer 3
Codec ID : 55
Codec ID/Hint : MP3
Duration : 2h 4mn
Bit rate mode : Constant
Bit rate : 192 Kbps
Channel(s) : 2 channels
Sampling rate : 44.1 KHz
Resolution : 16 bits
Video delay : 26ms
Stream size : 171 MiB (14%)
Alignment : Split accross interleaves
Interleave, duration : 33 ms (1.00 video frame)
Title : Audio Stream
 
Last edited by a moderator:

SamKook

Akiba Citizen
Uploader
May 10, 2009
2,795
3,791
LADY-044

attachment.php


LADY Stewardess Story
LADYスチュワーデス物語

http://www.lady2.net/044/index.html

Container: Avi
Video codec: DivX 6.6.1.4
Audio codec: MP3 2 channels
Runtime: 135 min
Size: 1.27 GB
Code: LADY-044
Cen/Uncen: Censored
actresses: Unknown
Release Date: 2007/12/20


Rapidshare:
http://rapidshare.com/files/301559860/LADY-044.rar
http://rapidshare.com/files/301657492/LADY-044.r00
http://rapidshare.com/files/301657990/LADY-044.r01
http://rapidshare.com/files/301658253/LADY-044.r02
http://rapidshare.com/files/301675722/LADY-044.r03
http://rapidshare.com/files/301700370/LADY-044.r04
http://rapidshare.com/files/301743647/LADY-044.r05
 
Last edited by a moderator:

SamKook

Akiba Citizen
Uploader
May 10, 2009
2,795
3,791
LADY-022

attachment.php


ベロKISS中毒! 通勤通学LADYの皆さ~ん!私が路地裏で犯す「接吻」痴漢師です。

http://www.lady2.net/022/index.html

Container: Avi
Video codec: XviD 1.2.0SMP
Audio codec: MP3 2 channels
Runtime: 130 min
Size: 1.37 GB
Code: LADY-022
Cen/Uncen: Censored
actresses: Unknown
Release Date: 2007/06/21


Rapidshare:
http://rapidshare.com/files/301744811/LADY-022.rar
http://rapidshare.com/files/301777267/LADY-022.r00
http://rapidshare.com/files/302013812/LADY-022.r01
http://rapidshare.com/files/302008758/LADY-022.r02
http://rapidshare.com/files/302012644/LADY-022.r03
http://rapidshare.com/files/302009792/LADY-022.r04
http://rapidshare.com/files/302015277/LADY-022.r05
 
Last edited by a moderator:

ice3155

Member
Aug 1, 2009
52
6
LADY-049

G2LADY049b.jpg

pe_lad0020_01.jpg


美脚少女と美巨乳少女のLADY初デビュー!飯島くらら・廣瀬ゆな

Video
Format : VC-1
Codec ID : WMV3
Codec ID/Info : Windows Media Video 9
Codec ID/Hint : WMV3
Duration : 2h 5mn
Bit rate mode : Constant
Bit rate : 718 Kbps
Width : 640 pixels
Height : 480 pixels
Display aspect ratio : 4/3
Frame rate : 30.000 fps
Resolution : 24 bits
Bits/(Pixel*Frame) : 0.078
Audio
Format : WMA2
Codec ID : 161
Codec ID/Info : Windows Media Audio 2
Description of the codec : Windows Media Audio 9.1 - 32 kbps, 22 kHz, stereo (A/V) 1-pass CBR
Duration : 2h 5mn
Bit rate mode : Constant
Bit rate : 32.0 Kbps
Channel(s) : 2 channels
Sampling rate : 22.05 KHz
 
Last edited by a moderator:
  • Like
Reactions: tliu223

SamKook

Akiba Citizen
Uploader
May 10, 2009
2,795
3,791
LADY-011

attachment.php


赤面バス地獄!通勤美人の皆さ~ん!私が「オンナ専門」女子高生痴漢師です。

http://www.lady2.net/011/index.html

Container: Avi
Video codec: DivX 5.1.1 (Maupiti)
Audio codec: MP3 2 channels
Runtime: 130 min
Size: 1.52 GB
Code: LADY-011
Cen/Uncen: Censored
actresses: Unknown
Release Date: 2007/03/22


Rapidshare:
http://rapidshare.com/files/302596082/LADY-011.rar
http://rapidshare.com/files/302611494/LADY-011.r00
http://rapidshare.com/files/302596214/LADY-011.r01
http://rapidshare.com/files/302596565/LADY-011.r02
http://rapidshare.com/files/302597026/LADY-011.r03
http://rapidshare.com/files/302597475/LADY-011.r04
http://rapidshare.com/files/302597958/LADY-011.r05
http://rapidshare.com/files/302597922/LADY-011.r06

LADY-011.jpg
 
Last edited by a moderator:
  • Like
Reactions: tliu223

SamKook

Akiba Citizen
Uploader
May 10, 2009
2,795
3,791
LADY-037

attachment.php


LADYデビュー♥ 超美形! S級女子大生美咲LADY初デビュー!

http://www.lady2.net/037/index.html

Container: Avi
Video codec: DivX 6.6.1.4
Audio codec: MP3 2 channels
Runtime: 130 min
Size: 1.49 GB
Code: LADY-037
Cen/Uncen: Censored
actresses: Misaki(美咲)、Yui Matsuno(松野ゆい)、Maya(まや)
Release Date: 2007/10/18
 
Last edited by a moderator:
  • Like
Reactions: tliu223

ice3155

Member
Aug 1, 2009
52
6
LADY-016

pe_lad0052_01.jpg


女学園の皆さ~ん!私がアナル好きな女教師です

Video
Format : MPEG-4 Visual
Format settings, BVOP : Yes
Format settings, QPel : No
Format settings, GMC : No warppoints
Format settings, Matrix : Default
Muxing mode : Packed bitstream
Codec ID : DX50
Codec ID/Hint : DivX 5
Duration : 1h 59mn
Bit rate : 1 399 Kbps
Width : 640 pixels
Height : 480 pixels
Display aspect ratio : 4/3
Frame rate : 29.970 fps
Resolution : 24 bits
Colorimetry : 4:2:0
Scan type : Progressive
Bits/(Pixel*Frame) : 0.152
Stream size : 1.17 GiB (87%)
Writing library : DivX 5.2.1 (WaffleDay) (UTC 2004-09-08)
Audio
Format : MPEG Audio
Format version : Version 1
Format profile : Layer 3
Codec ID : 55
Codec ID/Hint : MP3
Duration : 1h 59mn
Bit rate mode : Constant
Bit rate : 192 Kbps
Channel(s) : 2 channels
Sampling rate : 44.1 KHz
Resolution : 16 bits
Video delay : 26ms
Stream size : 164 MiB (12%)
Alignment : Split accross interleaves
Interleave, duration : 33 ms (1.00 video frame)
Title : Audio Stream
 
Last edited by a moderator:
  • Like
Reactions: tliu223

SamKook

Akiba Citizen
Uploader
May 10, 2009
2,795
3,791
LADY-006 re-upload

LADY-006-cover.jpg

LADY-006-thumbs.jpg


セクハラ研修! 新人看護師の皆さ~ん産婦人科医の私たちと実技研修しませんか。

Studio: LADYxLADY
Label: -
Director: Haruna(ハルナ)
Code: LADY-006
Runtime: 135 min
Genre: Lesbian
Cen/Uncen: Censored
Actresses: Unknown
Release Date: 2007/02/22



Container: AVI
Video codec: DivX 5.2.1 (WaffleDay) (UTC 2004-09-08)
Audio codec: MP3 2 channels
Framerate: 29.970 fps
Resolution: 640x480
Bit depth: 8 bits
Duration: 02:18:55.261
Size: 1.55 GiB
Watermark: none
Subtitles: none
Chapters: none

Password: SK123akiba

Uploadable:
http://safelink.strike-up.net/p/0f85923c5f

Keep2Share:
http://safelink.strike-up.net/p/16c9a0db15

Subyshare:
http://safelink.strike-up.net/p/507855328e

Uptobox:
http://safelink.strike-up.net/p/86b310aea9
 
Last edited:
  • Like
Reactions: tliu223 and gon69

SamKook

Akiba Citizen
Uploader
May 10, 2009
2,795
3,791
LADY-009 re-upload

LADY-009-cover.jpg

LADY-009-thumbs.jpg


女初体験! オンナ好きの皆さ~ん元女子プロレスラーとオイルレスリングしませんか。

Studio: LADYxLADY
Label: -
Director: Unknown
Code: LADY-009
Runtime: 115 min
Genre: Lesbian
Cen/Uncen: Censored
Actresses: Emi Toujou(東城えみ)
Release Date: 2007/02/22



Container: AVI
Video codec: DivX 5.2.1 (WaffleDay) (UTC 2004-09-08)
Audio codec: MP3 2 channels
Framerate: 29.970 fps
Resolution: 640x480
Bit depth: 8 bits
Duration: 01:58:09.483
Size: 1.32 GiB
Watermark: none
Subtitles: none
Chapters: none

Password: SK123akiba

Uploadable:
http://safelink.strike-up.net/p/63e6113929

Keep2Share:
http://safelink.strike-up.net/p/d60d250512

Uptobox:
http://safelink.strike-up.net/p/7bf2b9929f
 
Last edited:
  • Like
Reactions: tliu223 and gon69

SamKook

Akiba Citizen
Uploader
May 10, 2009
2,795
3,791
LADY-024

attachment.php


セクハラ大暴走! 一般人モデルを味見した~い!LADYスタッフが「ノンケ専用」芸能事務所をOPENしました。

http://www.lady2.net/024/index.html

Container: Avi
Video codec: XviD 1.2.0SMP
Audio codec: MP3 2 channels
Runtime: 120 min
Size: 1.37 GB
Code: LADY-024
Cen/Uncen: Censored
actresses: Unknown
Release Date: 2007/06/21


Rapidshare:
http://rapidshare.com/files/303701482/LADY-024.rar
http://rapidshare.com/files/303745496/LADY-024.r00
http://rapidshare.com/files/303700193/LADY-024.r01
http://rapidshare.com/files/303731242/LADY-024.r02
http://rapidshare.com/files/303733741/LADY-024.r03
http://rapidshare.com/files/303750858/LADY-024.r04
http://rapidshare.com/files/303966556/LADY-024.r05
 
Last edited by a moderator:
  • Like
Reactions: tliu223

ice3155

Member
Aug 1, 2009
52
6
LADY-019

LADY019l.jpg

美少女学園の皆さ~ん!勝負!女子高生VS女教師「イカせあいBATTLE」です。http://www.lady2.net/019/index.html

General
Complete name : [LADY019]美少女学園の皆さ~ん!勝負!女子高生VS女教師「イカせあいBATTLE」です。.avi
Format : AVI
Format/Info : Audio Video Interleave
File size : 1.34 GiB
Duration : 2h 1mn
Overall bit rate : 1 570 Kbps
Writing application : VirtualDubMod 1.5.4.1 (build 2117/release)
Writing library : VirtualDubMod build 2117/release
Video
Format : MPEG-4 Visual
Format profile : Streaming Video@L1
Format settings, BVOP : Yes
Format settings, QPel : No
Format settings, GMC : No warppoints
Format settings, Matrix : Default
Codec ID : XVID
Codec ID/Hint : XviD
Duration : 2h 1mn
Bit rate : 1 430 Kbps
Width : 720 pixels
Height : 480 pixels
Display aspect ratio : 1.500
Frame rate : 29.970 fps
Standard : NTSC
Resolution : 24 bits
Colorimetry : 4:2:0
Scan type : Progressive
Bits/(Pixel*Frame) : 0.138
Stream size : 1.22 GiB (91%)
Writing library : XviD 1.0.1 (UTC 2004-06-05)
Audio
Format : MPEG Audio
Format version : Version 1
Format profile : Layer 3
Codec ID : 55
Codec ID/Hint : MP3
Duration : 2h 1mn
Bit rate mode : Constant
Bit rate : 128 Kbps
Minimum bit rate : 128 Kbps
Channel(s) : 2 channels
Sampling rate : 48.0 KHz
Resolution : 16 bits
Stream size : 112 MiB (8%)
Alignment : Aligned on interleaves
Interleave, duration : 33 ms (1.00 video frame)
Interleave, preload duration : 504 ms
Writing library : LAME3.95
Encoding settings : CBR
 
Last edited by a moderator:
  • Like
Reactions: tliu223

SamKook

Akiba Citizen
Uploader
May 10, 2009
2,795
3,791
LADY-039

attachment.php


全身脱毛サロン♥ 性感刺激でキレイになる!(恥)パイパン美容療法

http://www.lady2.net/039/index.html

Container: Avi
Video codec: DivX 6.6.1.4
Audio codec: MP3 2 channels
Runtime: 130 min
Size: 1.34 GB
Code: LADY-039
Cen/Uncen: Censored
actresses: Unknown
Release Date: 2007/10/18


Rapidshare:
http://rapidshare.com/files/303976630/LADY-039.rar
http://rapidshare.com/files/303975850/LADY-039.r00
http://rapidshare.com/files/303977475/LADY-039.r01
http://rapidshare.com/files/303980679/LADY-039.r02
http://rapidshare.com/files/303983582/LADY-039.r03
http://rapidshare.com/files/304007180/LADY-039.r04
http://rapidshare.com/files/303981726/LADY-039.r05
 
Last edited by a moderator:
  • Like
Reactions: tliu223

SamKook

Akiba Citizen
Uploader
May 10, 2009
2,795
3,791
LADY-050

attachment.php


Monmon 3 Sisters
もんもん3姉妹♥ あおばお姉ちゃん、ネバネバおもらし大洪水!の巻

http://www.lady2.net/050/index.html

Container: Avi
Video codec: XviD 1.2.0SMP
Audio codec: MP3 2 channels
Runtime: 125 min
Size: 1.09 GB
Code: LADY-050
Cen/Uncen: Censored
actresses: Fuuka Nanasaki (七咲楓花), Aoba Itou (伊藤青葉), Hinata Seto (瀬戸ひなた), Chihiro (ちひろ)
Release Date: 2008/03/20


Thanks to Seeboll for the torrent.

Rapidshare:
http://rapidshare.com/files/304228026/LADY-050.rar
http://rapidshare.com/files/304219044/LADY-050.r00
http://rapidshare.com/files/304230697/LADY-050.r01
http://rapidshare.com/files/304224060/LADY-050.r02
http://rapidshare.com/files/304221832/LADY-050.r03
http://rapidshare.com/files/304223675/LADY-050.r04

Cover
 
Last edited by a moderator:
  • Like
Reactions: tliu223

ice3155

Member
Aug 1, 2009
52
6
LADY-033

LADY033l.jpg

LADYデビュー♥ 平成生まれ18歳美少女LADY初デビュー!
http://www.lady2.net/033/index.html


General
Complete name : (LADY033)平成生まれ18歳美少女LADY初デビュー.wmv
Format : Windows Media
File size : 751 MiB
Duration : 2h 19mn
Overall bit rate mode : Constant
Overall bit rate : 754 Kbps
Maximum Overall bit rate : 760 Kbps
Encoded date : UTC 2007-12-17 05:06:32.937
Video #2
Format : VC-1
Codec ID : WMV3
Codec ID/Info : Windows Media Video 9
Codec ID/Hint : WMV3
Duration : 2h 19mn
Bit rate mode : Constant
Bit rate : 718 Kbps
Width : 640 pixels
Height : 480 pixels
Display aspect ratio : 4/3
Frame rate : 30.000 fps
Resolution : 24 bits
Bits/(Pixel*Frame) : 0.078
Audio #1
Format : WMA2
Codec ID : 161
Codec ID/Info : Windows Media Audio 2
Description of the codec : Windows Media Audio 9 - 32 kbps, 22 kHz, stereo (A/V) 1-pass CBR
Duration : 2h 19mn
Bit rate mode : Constant
Bit rate : 32.0 Kbps
Channel(s) : 2 channels
Sampling rate : 22.05 KHz
 
Last edited by a moderator: