1. Akiba-Online is sponsored by FileJoker.

    FileJoker is a required filehost for all new posts and content replies in the Direct Downloads subforums.

    Failure to include FileJoker links for Direct Download posts will result in deletion of your posts or worse.

    For more information see
    this thread.
    Dismiss Notice

[USENET] ANND-003

Discussion in 'P2P Downloads' started by hmaulwurf88, Feb 24, 2012.

  1. hmaulwurf88

    hmaulwurf88 New Member

    [​IMG]

    Video
    ID : 0
    Format : MPEG-4 Visual
    Format profile : Advanced Simple@L5
    Format settings, BVOP : 2
    Format settings, QPel : No
    Format settings, GMC : No warppoints
    Format settings, Matrix : Default (H.263)
    Codec ID : XVID
    Codec ID/Hint : XviD
    Duration : 1h 59mn
    Bit rate : 994 Kbps
    Width : 640 pixels
    Height : 480 pixels
    Display aspect ratio : 4:3
    Frame rate : 29.970 fps
    Color space : YUV
    Chroma subsampling : 4:2:0
    Bit depth : 8 bits
    Scan type : Progressive
    Compression mode : Lossy
    Bits/(Pixel*Frame) : 0.108
    Stream size : 847 MiB (93%)
    Writing library : XviD 1.1.0 (UTC 2005-11-22)

    Audio
    ID : 1
    Format : MPEG Audio
    Format version : Version 1
    Format profile : Layer 3
    Codec ID : 55
    Codec ID/Hint : MP3
    Duration : 1h 59mn
    Bit rate mode : Constant
    Bit rate : 64.0 Kbps
    Channel(s) : 2 channels
    Sampling rate : 48.0 KHz
    Compression mode : Lossy
    Delay relative to video : 33ms
    Stream size : 54.5 MiB (6%)
    Alignment : Aligned on interleaves
    Interleave, duration : 24 ms (0.72 video frame)
    Interleave, preload duration : 504 ms
    Writing library : LAME3.97


    upload complete.
     
  2. loremipsum

    loremipsum Member