1. Akiba-Online is sponsored by FileJoker.

    FileJoker is a required filehost for all new posts and content replies in the Direct Downloads subforums.

    Failure to include FileJoker links for Direct Download posts will result in deletion of your posts or worse.

    For more information see
    this thread.
    Dismiss Notice

[MP4/851MB] Rurouni Kenshin 2012 BRRip 720p x264 AAC

Discussion in 'Movie Torrents' started by prophetomega, Sep 19, 2014.

  1. prophetomega

    prophetomega Smut Hunter

    f52517524701.

    I bet you had heard of Rurouni Kenshin or Samurai X anime. On 2012 a live action adaptation was made. It was really good it became a box office hit. Compare to most live action that had been done in the past, I can say this is the best. If you haven't watched this, check it out now!

    Info about the film: http://en.wikipedia.org/wiki/Rurouni_Kenshin_(film)

    Format : MPEG-4
    File size : 851 MiB
    Duration : 2h 14mn
    Overall bit rate : 885 Kbps

    Video
    Format : AVC
    Bit rate : 803 Kbps
    Width : 1 280 pixels
    Height : 538 pixels
    Display aspect ratio : 2.40:1
    Frame rate mode : Constant
    Frame rate : 23.976 fps
    Bit depth : 10 bits
    Stream size : 772 MiB (91%)
    Writing library : x264 core 140 r2377
    Audio
    Format : AAC
    Bit rate mode : Variable
    Bit rate : 80.0 Kbps
    Channel count : 2 channels
    Channel positions : Front: L R
    Sampling rate : 48.0 KHz
    Stream size : 76.9 MiB (9%)
    Language : Japanese

    Subtitle : Yes (English)


    credits to original uploader ValidusVyto
     

    Attached Files:

  2. tare

    tare New Member

    Thank You